The Traders' Den  

  The Traders' Den > Where we go to learn ..... > Technobabble
 

Technobabble Post your general Need for Help questions here.
Lossy or Lossless?
Moderators

Reply
 
Thread Tools
  #1  
Old 2021-08-24, 04:15 PM
Blackdeath's Avatar
Blackdeath Blackdeath is offline
8.77 GB/283.16 GB/32.28
 
Join Date: Dec 2004
seeding a DVD

since my first attempt to seed a video show it got pulled from here..since i couldnt choose type of show it was from the drop box..

this is a blue ray version(20.5gb)liberated bootleg XAVEL ALX-BD-009_TaylorSwift.. not the standard version on DIME..as far im aware of..before i upload it what would i put down as lineage since there is nothing provided??
here is the info
Video
ID : 4113 (0x1011)
Menu ID : 1 (0x1)
Format : MPEG Video
Format version : Version 2
Format profile : Main@High
Format settings, Matrix : Default
Duration : 1h 31mn
Bit rate mode : Variable
Bit rate : 27.8 Mbps
Nominal bit rate : 35.0 Mbps
Width : 1 920 pixels
Height : 1 080 pixels
Display aspect ratio : 16:9
Frame rate : 29.970 fps
Standard : Component
Colorimetry : 4:2:0
Scan type : Interlaced
Scan order : Top Field First
Bits/(Pixel*Frame) : 0.448
Stream size : 17.7 GiB (86%)

Audio #1
ID : 4352 (0x1100)
Menu ID : 1 (0x1)
Format : PCM
Format settings, Endianness : Big
Format settings, Sign : Signed
Muxing mode : Blu-ray
Duration : 1h 31mn
Bit rate mode : Constant
Bit rate : 1 536 Kbps
Channel(s) : 2 channels
Channel positions : Front: L R
Sampling rate : 48.0 KHz
Resolution : 16 bits
Stream size : 1 003 MiB (5%)

Audio #2
ID : 4353 (0x1101)
Menu ID : 1 (0x1)
Format : PCM
Format settings, Endianness : Big
Format settings, Sign : Signed
Muxing mode : Blu-ray
Duration : 1h 31mn
Bit rate mode : Constant
Bit rate : 1 536 Kbps
Channel(s) : 2 channels
Channel positions : Front: L R
Sampling rate : 48.0 KHz
Resolution : 16 bits
Stream size : 1 003 MiB (5%)
Reply With Quote Reply with Nested Quotes
Reply

The Traders' Den > Where we go to learn ..... > Technobabble

Similar Threads
Thread Forum Replies Last Post
Blu-ray seeding ?? - willndmb Technobabble 1 2014-04-21 06:29 PM
NEW SITE NEW RULES Audio BitTorrent Seeding Policy - Please Read Before Seeding - RainDawg Audio Torrents 1 2008-04-29 10:27 AM
Video BitTorrent Seeding Policy - Please Read Before Seeding - RainDawg Video Torrents 3 2008-04-29 10:22 AM
Need help seeding - headinlot Technobabble 1 2007-03-27 03:08 PM
Seeding help please? - reece Technobabble 2 2005-04-05 05:30 PM


Thread Tools

Posting Rules
You may not post new threads
You may not post replies
You may not post attachments
You may not edit your posts

BB code is On
Smilies are On
[IMG] code is On
HTML code is Off

Forums


All times are GMT -5. The time now is 05:39 PM.


Powered by: vBulletin, Copyright ©2000 - 2022, Jelsoft Enterprises Ltd.
Copyright ©2004 - , TheTradersDen.org - All Rights Reserved - Hosted at QuickPacket
no new posts