The Traders' Den  

  The Traders' Den > Where we go to learn ..... > Technobabble
 

Notices

Technobabble Post your general Need for Help questions here.
Lossy or Lossless?
Moderators

Reply
 
Thread Tools
  #1  
Old 2010-10-03, 05:37 AM
jabulon's Avatar
jabulon jabulon is offline
IC Elvis & hear God on my iPod
TTD Staff
704.58 GB/2.33 TB/3.39
 
Join Date: Apr 2009
Location: Latitude: 52,3500, Longitude: 4,9167, Altitude: High
Question VOB files with different aspect ratios?

I have a trade DVD here and when I checked the VOB's (GSpot) it says that the first VTS file is 4:3 and the rest are 16:9 (see attachment) When played on my PC (with MPC or VLC) the dvd is being displayed as 4:3. When burned to a disc and played on my SA the aspect ratio is 4:3 as well. Also GSpot only displays a codec (S170) for VTS_01_1.VOB but not for the other VOB files.

Any ideas?
Attached Images
File Type: jpg VOB's.JPG
( 169.1 KB, 65 views)
 
__________________
Dubbin' is a must. Strictly add music!
Reply With Quote Reply with Nested Quotes
  #2  
Old 2010-10-03, 05:52 AM
jabulon's Avatar
jabulon jabulon is offline
IC Elvis & hear God on my iPod
TTD Staff
704.58 GB/2.33 TB/3.39
 
Join Date: Apr 2009
Location: Latitude: 52,3500, Longitude: 4,9167, Altitude: High
Re: VOB files with different aspect ratios?

BTW, mediainfo is telling me that VTS_01_1.VOB is 16:9


General
Complete name : C:\Documents and Settings\.....\VIDEO_TS\VTS_01_1.VOB
Format : MPEG-PS
File size : 1 024 MiB
Duration : 16mn 55s
Overall bit rate : 8 458 Kbps

Video
ID : 224 (0xE0)
Format : MPEG Video
Format version : Version 2
Format profile : Main@Main
Format settings, BVOP : Yes
Format settings, Matrix : Default
Duration : 16mn 55s
Bit rate mode : Variable
Bit rate : 7 905 Kbps
Width : 720 pixels
Height : 576 pixels
Display aspect ratio : 16:9
Frame rate : 25.000 fps
Standard : PAL
Color space : YUV
Chroma subsampling : 4:2:0
Bit depth : 8 bits
Bits/(Pixel*Frame) : 0.762
Stream size : 957 MiB (93%)

Audio
ID : 128 (0x80)
Format : AC-3
Format/Info : Audio Coding 3
Mode extension : CM (complete main)
Duration : 16mn 55s
Bit rate mode : Constant
Bit rate : 384 Kbps
Channel(s) : 6 channels
Channel positions : Front: L C R, Side: L R, LFE
Sampling rate : 48.0 KHz
Bit depth : 16 bits
Video delay : 40ms
Stream size : 46.5 MiB (5%)

Menu
__________________
Dubbin' is a must. Strictly add music!
Reply With Quote Reply with Nested Quotes
  #3  
Old 2010-10-03, 12:02 PM
sysoverload sysoverload is offline
3.75 GB/4.22 MB/0.00
 
Join Date: Aug 2010
Re: VOB files with different aspect ratios?

does it look funny on your TV? like squashed or stretched? was it a 16:9 broadcast that was recorded @ 4:3? You can rewrite the headers to the correct aspect ratio without re-encoding with DVD patcher (free): http://www.videohelp.com/tools/DVDPatcher
Reply With Quote Reply with Nested Quotes
  #4  
Old 2010-10-03, 12:54 PM
jabulon's Avatar
jabulon jabulon is offline
IC Elvis & hear God on my iPod
TTD Staff
704.58 GB/2.33 TB/3.39
 
Join Date: Apr 2009
Location: Latitude: 52,3500, Longitude: 4,9167, Altitude: High
Re: VOB files with different aspect ratios?

thanks sysoverload, that did the trick.
__________________
Dubbin' is a must. Strictly add music!
Reply With Quote Reply with Nested Quotes
  #5  
Old 2010-10-03, 01:25 PM
sysoverload sysoverload is offline
3.75 GB/4.22 MB/0.00
 
Join Date: Aug 2010
Re: VOB files with different aspect ratios?

Reply With Quote Reply with Nested Quotes
Reply

The Traders' Den > Where we go to learn ..... > Technobabble

Similar Threads
Thread Forum Replies Last Post
Correcting aspect ratio in Vegas Video - DanielG Technobabble 4 2010-04-06 12:07 AM
What's the aspect ratio of this? - tgunn2760 Technobabble 8 2008-07-01 03:08 AM
whats the best pixel aspect ratio to use in sony vegas 6 - bigwurock Technobabble 0 2007-06-06 09:53 PM
Pixel Sizes vs. Aspect Ratio For DVD? - dirtfloorcracker Technobabble 3 2007-02-09 02:26 PM
Aspect ratio question/problem - onemanguitarband Technobabble 2 2005-10-23 07:28 AM


Thread Tools

Posting Rules
You may not post new threads
You may not post replies
You may not post attachments
You may not edit your posts

BB code is On
Smilies are On
[IMG] code is On
HTML code is Off

Forums


All times are GMT -5. The time now is 09:36 PM.


Powered by: vBulletin, Copyright ©2000 - 2017, Jelsoft Enterprises Ltd.
Copyright ©2004 - , TheTradersDen.org - All Rights Reserved - Hosted at QuickPacket
no new posts