The Traders' Den  

  The Traders' Den > Where we go to learn ..... > Technobabble


Technobabble Post your general Need for Help questions here.
Lossy or Lossless?

Thread Tools
Old 2009-08-05, 10:06 PM
Aimee Wilbury Aimee Wilbury is offline
97.51 GB/219.10 GB/2.25
Join Date: Oct 2007
FLV audio/video out of sync only in editors.

All right, so I have a FLV file which I'd like to do a bit of editing (extracting a section) to so I can put it up on YouTube.

It plays just fine in any media player (e.g. MPC or VLC), but if I load it into a video editor (Avidemux or VDub using AviSynth) the audio and video are out of sync. I'd presume it'd also be out of sync on the edits.

Any suggestions anyone?

Edit: Realized maybe I should post video info

Complete name : C:\Users\Aimee\Videos\Tom Petty thingy.flv
Format : Flash Video
File size : 135 MiB
Duration : 30mn 56s
Overall bit rate : 608 Kbps
Tagging application : FlixEngineLinux_8.0.12.0 (

Format : VP6
Duration : 30mn 56s
Bit rate : 476 Kbps
Width : 504 pixels
Height : 380 pixels
Display aspect ratio : 4:3
Frame rate : 30.000 fps
Bits/(Pixel*Frame) : 0.083
Stream size : 108 MiB (80%)

Format : MPEG Audio
Format version : Version 1
Format profile : Layer 3
Duration : 30mn 56s
Bit rate mode : Constant
Bit rate : 112 Kbps
Channel(s) : 2 channels
Sampling rate : 44.1 KHz
Resolution : 16 bits
Video delay : 5ms
Stream size : 24.8 MiB (18%)

EDIT: Strangely it seems to have corrected itself.

Last edited by Aimee Wilbury; 2009-08-07 at 10:26 AM.
Reply With Quote Reply with Nested Quotes

The Traders' Den > Where we go to learn ..... > Technobabble

Similar Threads
Thread Forum Replies Last Post
Stretching audio to sync with video - redpill Technobabble 13 2007-12-30 09:58 AM
Dvd Audio/video sync fix - GeoffP Technobabble 1 2007-10-29 05:03 PM
What program to use to sync audio/video - Please Help - tbradley77 Technobabble 9 2006-12-28 06:10 PM
No audio when I FF to missing video section w/audio sync - aikox2 Technobabble 0 2006-08-26 03:24 PM
Video out of sync with audio - silentmachine Technobabble 8 2004-12-07 02:16 PM

Thread Tools

Posting Rules
You may not post new threads
You may not post replies
You may not post attachments
You may not edit your posts

BB code is On
Smilies are On
[IMG] code is On
HTML code is Off


All times are GMT -5. The time now is 06:37 PM.

Powered by: vBulletin, Copyright ©2000 - 2016, Jelsoft Enterprises Ltd.
Copyright ©2004 - , - All Rights Reserved - Hosted at QuickPacket
no new posts