The Traders' Den  

  The Traders' Den > Where we go to learn ..... > Technobabble
 

Notices

Technobabble Post your general Need for Help questions here.
Lossy or Lossless?
Moderators

Reply
 
Thread Tools
  #1  
Old 2015-03-22, 09:42 AM
BlackBart's Avatar
BlackBart BlackBart is offline
584.61 GB/890.32 GB/1.52
 
Join Date: Nov 2008
Please include an EAC/XLD log with your files.

" Please include an EAC/XLD log with your files." What exactly is a EAC/XLD log? And how do I create one? I have a show I want to upload, but I'm not sure if a EAC log is included. I also think the st5 checksums, flac fingerprints, and MD5 Checksums are wrong or at least not like what's shown on the upload page under the section "All audio shows MUST have complete lineage and checksums/fingerprints or they will be pulled." "see the difference here" link. Thanks for the help.

I will post the checksums so someone can check and verify before I upload. Also I will include the text file.

d1t01.flac:a564338bc175f836180a2be9a5803588
d1t02.flac:6cce60571c5bd58427e585808e93aaec
d1t03.flac:36515274d03de9c6ca1b0deeeba057c1
d1t04.flac:d06283065798d1e3221824eb4d7c41dd
d1t05.flac:bb8e0bee98a8ec3223c76f180d1eb625
d1t06.flac:e5650f562377b831998d40e61b5377c2
d1t07.flac:6d5cbc49518a2cb11cb5930732ef8712
d1t08.flac:80ae037506ad105994ddd047070f3271
d1t09.flac:b0155008d001781419b8c53e514fe463
d1t10.flac:7c368e8f6808d0d1242e054bdb7ee31c
d1t11.flac:f962f1b0db22b5ab1052283ccdf692a3
d1t12.flac:da6b4264a81039b5ed5642f0e1e66e7e
d1t13.flac:6e22fea82e4f85a883064e2fb9e2fbb9
d2t01.flac:18e98270a2701fe7901cc8efb3ff892c
d2t02.flac:e61fb9b2d996384eb50715599d796df1
d2t03.flac:bba8576aeead4afc66feef422067da2f
d2t04.flac:183584a73f9d77fb6835edb44a85509e
d2t05.flac:c73848649075c133a89095333a683aab
d2t06.flac:ef7077ea8f2662e9fc7ad3744e617d3c
d2t07.flac:82f17e664bd6d5517784824f0eb24673
d2t08.flac:c27093925051c32240fcb6ecb5ea0d04
d2t09.flac:27ebcc060d66575ecdd2bd72ce794348
d2t10.flac:89d6adac440a30e37f30b439e67bd067

1918da478e318ce13c18534f8560be58 *d1t01.flac
65ab8ea9997e6f2ca2023b4b10a6fa30 *d1t02.flac
d2d5c3fced5fa2ed2600c2c181f43699 *d1t03.flac
4f2852d423bd9e5242fef2c558a610e3 *d1t04.flac
10f7d72a3a9a828d4429a042545fcee3 *d1t05.flac
8c7a892628ded9858befe0c09b4f86b2 *d1t06.flac
79bc67c50ebc563779e832a4a004c65f *d1t07.flac
8ce316b675cf014f5588d259244a5447 *d1t08.flac
e517d587550b744c4337a53b4224ea0c *d1t09.flac
f52d983dacf66ee07147d898faed0396 *d1t10.flac
b8979ff41c52c4412ca55d282737ecad *d1t11.flac
767cd532d8da66d8cc006ec8d37ebdfa *d1t12.flac
8da03f8b60634a4d38bb5ab0eba4de40 *d1t13.flac
7595fc0608efc9fe5ea68726581e9ef6 *d2t01.flac
eddd324e81fafc388862f0bda8131888 *d2t02.flac
c09ab6ffef0a904bdf172394104c18c4 *d2t03.flac
22fbf841c69453700653cfeb612d1540 *d2t04.flac
cd3498926673b109f42e73cb73a7bae9 *d2t05.flac
cf60841f329bcaee34cceaa6300715b2 *d2t06.flac
7b781882e1f08aac24571502c353bb80 *d2t07.flac
c640193bdf9cf2c821b530ef53381436 *d2t08.flac
93b1431c6df5260e84b4d8d228a2097d *d2t09.flac
6d22783274c08fffc60855ba78082eec *d2t10.flac

length expanded size cdr WAVE problems fmt ratio filename
4:30.66 47783276 B --- -- ---xx flac 0.6013 d1t01.flac
3:11.29 33760652 B --- -- ---xx flac 0.5260 d1t02.flac
3:29.71 37034636 B --- -- ---xx flac 0.5963 d1t03.flac
2:47.00 29458844 B --- -- ---xx flac 0.5896 d1t04.flac
3:26.20 36385484 B --- -- ---xx flac 0.5521 d1t05.flac
4:29.63 47599820 B --- -- ---xx flac 0.6207 d1t06.flac
4:08.28 43813100 B --- -- ---xx flac 0.6049 d1t07.flac
4:58.06 52581356 B --- -- ---xx flac 0.5874 d1t08.flac
4:03.35 42947564 B --- -- ---xx flac 0.5951 d1t09.flac
3:30.05 37055804 B --- -- ---xx flac 0.6483 d1t10.flac
2:55.40 30964124 B --- -- ---xx flac 0.6249 d1t11.flac
5:32.50 58682444 B --- -- ---xx flac 0.5074 d1t12.flac
3:53.73 41272940 B --- -- ---xx flac 0.5910 d1t13.flac
4:12.08 44471660 B --- -- ---xx flac 0.5705 d2t01.flac
3:14.64 34372172 B --- -- ---xx flac 0.6069 d2t02.flac
3:42.46 39269036 B --- -- ---xx flac 0.6486 d2t03.flac
3:36.51 38222396 B --- -- ---xx flac 0.6338 d2t04.flac
6:05.28 64451900 B --- -- ---xx flac 0.5772 d2t05.flac
4:24.12 46597868 B --- -- ---xx flac 0.5846 d2t06.flac
4:34.22 48385388 B --- -- ---xx flac 0.6263 d2t07.flac
7:42.25 81555644 B --- -- ---xx flac 0.5866 d2t08.flac
11:07.28 117724700 B --- -- ---xx flac 0.5750 d2t09.flac
5:36.44 59373932 B --- -- ---xx flac 0.5296 d2t10.flac
105:13.64 1113764740 B 0.5869 (23 files)


Here is the text file.
Eric Clapton
November 7, 1994
The Fillmore
San Francisco, California

2 source matrix

Soundboard: "Blues at the Fillmore"
---------------------------------------------------------------------------------------
(Soundboard FLAC)

"Blues at the Fillmore"
Fillmore West

3BR Records - 3BR 125 - SB 6

LINEAGE:
Original 3BR (Directly from Igor and the Professor) > LiteOn iHAP322 (UL18 Firmware) >
EAC v. 0.99 Prebeta 4 (Secure Mode, Calibrated Offset +6, 0) > FLAC (Level 6)


Geetarz Comments:
Okay, we're talking "essential", right? After the success of the late 1980s and early
1990s - especially "Unplugged" - EC was finally free to pursue his passion, blues! After
testing the waters with some "all blues" nights at the Royal Albert Hall, and then the
mixed blues/pop/rock sets from 1993, in 1994 it was time to jump in all the way. After a
long summer arena tour with a setlist consisting only of his favorite blues numbers, in
early November Clapton set out on a mini-tour of not arenas, not sheds, but small clubs -
the places where this music was born, and meant to be played. The first three nights were
also notable, as on November 7/8/9 they took place at the Fillmore, in San Francisco, and
were recorded and filmed for a movie by acclaimed director Martin Scorcese. This night,
the first of the three night run, was recorded on videotape by the crew so that they
could plan their camera moves and "blocking" for the remaining two nights. The videotape
source has been available to collectors in varying quality for years, and has been used
as the source for several boots, perhaps the most notable of which is
"Blues From the Heart" (Parrott / Red Robin). The folks at 3BR obtained access to a very
low generation, much cleaner source than used for "Blues From the Heart", and after a
bunch of work, released the result as "Blues At the Fillmore" for fans. Even if you
already have a copy of this title, this may be a nice upgrade for you, direct from the
masters with known lineage.


Audience: "Red"
-----------------------------------------------------------------------------------------
Eric Clapton
RED
November 7/8/9 1994
Mid Valley-MVR 257/258/259/260/262/262
The Fillmore, San Francisco, California
Audience A5/A6

November 7th 1994

Lineage
Audience>Mid Valley Silvers>Plextor 40X12X40 SCSI>EAC>Flac Frontend 6

Originally upped by Mainline Fl on dime in 2009.
------------------------------------------------------------------------------------------

---Thank you to Geetarz and the folks at 3BR for all the work on the SBD.
---Thank you Mainline Fl for making the AUD available.
---Thanks to germain for everything;seeding,encouragement,advice and tutelage.

Mix Ratio:
SBD -1 db
Aud -8 db
** some minor mix adjustments here and there when needed **

Matrix by dusborne using Adobe Audition CS6 and Audacity 2.0

01-03-2013
------------------------------------------------------------------------------------------


Eric Clapton: Guitar, Vocals
Andy Fairweather Low: Rhythm Guitar
Jerry Portnoy: Harmonica
Chris Stainton: Keyboards
Dave Bronze: Bass
Andy Newmark: Drums
Roddy Lorimer: Trumpet
Tim Sanders: Tenor Sax
Simon Clarke: Baritone Sax

Disc 1

d1t01 - Motherless Child
d1t02 - Malted Milk
d1t03 - How Long
d1t04 - Kidman Blues
d1t05 - County Jail
d1t06 - .44
d1t07 - Blues Leave Me Alone
d1t08 - Standin' Around Crying
d1t09 - Hoochie Coochie Man
d1t10 - It Hurts Me Too
d1t11 - Blues Before Sunrise
d1t12 - Third Degree
d1t13 - Reconsider Baby

Disc 2

d2t01 - Sinner's Prayer
d2t02 - Can't Judge Nobody
d2t03 - Someday After a While
d2t04 - Tore Down
d2t05 - Have You Ever Loved a Woman
d2t06 - Crosscut Saw
d2t07 - Five Long Years
d2t08 - Crossroads
d2t09 - Groaning the Blues
d2t10 - Ain't Nobody's Business
---------------------------------------------------------------------------------------
Tagging notes:
Show information is embedded within the header of each flac file.
It will display on any player capable of directly playing flac
files. If converted to wav during processing, all tags will be
stripped, however audio data will remain unaffected. If you must
transcode to a lossy format, do so directly Flac > Lossy.
Use ffp to validate audio integrity.
Md5 values will change if tagging is altered.

dusborne 01-03-2013
----------------------------------------------------------------------------------------
length expanded size cdr WAVE problems fmt ratio filename
4:30.66 47783276 B --- -- ---xx flac 0.6013 d1t01.flac
3:11.29 33760652 B --- -- ---xx flac 0.5260 d1t02.flac
3:29.71 37034636 B --- -- ---xx flac 0.5963 d1t03.flac
2:47.00 29458844 B --- -- ---xx flac 0.5896 d1t04.flac
3:26.20 36385484 B --- -- ---xx flac 0.5521 d1t05.flac
4:29.63 47599820 B --- -- ---xx flac 0.6207 d1t06.flac
4:08.28 43813100 B --- -- ---xx flac 0.6049 d1t07.flac
4:58.06 52581356 B --- -- ---xx flac 0.5874 d1t08.flac
4:03.35 42947564 B --- -- ---xx flac 0.5951 d1t09.flac
3:30.05 37055804 B --- -- ---xx flac 0.6483 d1t10.flac
2:55.40 30964124 B --- -- ---xx flac 0.6249 d1t11.flac
5:32.50 58682444 B --- -- ---xx flac 0.5074 d1t12.flac
3:53.73 41272940 B --- -- ---xx flac 0.5910 d1t13.flac
4:12.08 44471660 B --- -- ---xx flac 0.5705 d2t01.flac
3:14.64 34372172 B --- -- ---xx flac 0.6069 d2t02.flac
3:42.46 39269036 B --- -- ---xx flac 0.6486 d2t03.flac
3:36.51 38222396 B --- -- ---xx flac 0.6338 d2t04.flac
6:05.28 64451900 B --- -- ---xx flac 0.5772 d2t05.flac
4:24.12 46597868 B --- -- ---xx flac 0.5846 d2t06.flac
4:34.22 48385388 B --- -- ---xx flac 0.6263 d2t07.flac
7:42.25 81555644 B --- -- ---xx flac 0.5866 d2t08.flac
11:07.28 117724700 B --- -- ---xx flac 0.5750 d2t09.flac
5:36.44 59373932 B --- -- ---xx flac 0.5296 d2t10.flac
105:13.64 1113764740 B 0.5869 (23 files)
-----------------------------------------------------------------------------------------
d1t01.flac:a564338bc175f836180a2be9a5803588
d1t02.flac:6cce60571c5bd58427e585808e93aaec
d1t03.flac:36515274d03de9c6ca1b0deeeba057c1
d1t04.flac:d06283065798d1e3221824eb4d7c41dd
d1t05.flac:bb8e0bee98a8ec3223c76f180d1eb625
d1t06.flac:e5650f562377b831998d40e61b5377c2
d1t07.flac:6d5cbc49518a2cb11cb5930732ef8712
d1t08.flac:80ae037506ad105994ddd047070f3271
d1t09.flac:b0155008d001781419b8c53e514fe463
d1t10.flac:7c368e8f6808d0d1242e054bdb7ee31c
d1t11.flac:f962f1b0db22b5ab1052283ccdf692a3
d1t12.flac:da6b4264a81039b5ed5642f0e1e66e7e
d1t13.flac:6e22fea82e4f85a883064e2fb9e2fbb9
d2t01.flac:18e98270a2701fe7901cc8efb3ff892c
d2t02.flac:e61fb9b2d996384eb50715599d796df1
d2t03.flac:bba8576aeead4afc66feef422067da2f
d2t04.flac:183584a73f9d77fb6835edb44a85509e
d2t05.flac:c73848649075c133a89095333a683aab
d2t06.flac:ef7077ea8f2662e9fc7ad3744e617d3c
d2t07.flac:82f17e664bd6d5517784824f0eb24673
d2t08.flac:c27093925051c32240fcb6ecb5ea0d04
d2t09.flac:27ebcc060d66575ecdd2bd72ce794348
d2t10.flac:89d6adac440a30e37f30b439e67bd067
-----------------------------------------------------------------------------------------
1918da478e318ce13c18534f8560be58 *d1t01.flac
65ab8ea9997e6f2ca2023b4b10a6fa30 *d1t02.flac
d2d5c3fced5fa2ed2600c2c181f43699 *d1t03.flac
4f2852d423bd9e5242fef2c558a610e3 *d1t04.flac
10f7d72a3a9a828d4429a042545fcee3 *d1t05.flac
8c7a892628ded9858befe0c09b4f86b2 *d1t06.flac
79bc67c50ebc563779e832a4a004c65f *d1t07.flac
8ce316b675cf014f5588d259244a5447 *d1t08.flac
e517d587550b744c4337a53b4224ea0c *d1t09.flac
f52d983dacf66ee07147d898faed0396 *d1t10.flac
b8979ff41c52c4412ca55d282737ecad *d1t11.flac
767cd532d8da66d8cc006ec8d37ebdfa *d1t12.flac
8da03f8b60634a4d38bb5ab0eba4de40 *d1t13.flac
7595fc0608efc9fe5ea68726581e9ef6 *d2t01.flac
eddd324e81fafc388862f0bda8131888 *d2t02.flac
c09ab6ffef0a904bdf172394104c18c4 *d2t03.flac
22fbf841c69453700653cfeb612d1540 *d2t04.flac
cd3498926673b109f42e73cb73a7bae9 *d2t05.flac
cf60841f329bcaee34cceaa6300715b2 *d2t06.flac
7b781882e1f08aac24571502c353bb80 *d2t07.flac
c640193bdf9cf2c821b530ef53381436 *d2t08.flac
93b1431c6df5260e84b4d8d228a2097d *d2t09.flac
6d22783274c08fffc60855ba78082eec *d2t10.flac
------------------------------------------------------------------------------------------
Reply With Quote Reply with Nested Quotes
  #2  
Old 2015-03-22, 07:24 PM
U2Lynne's Avatar
U2Lynne U2Lynne is offline
TTD Staff
471.57 GB/2.01 TB/4.37
 
Join Date: Oct 2004
Location: California
Re: Please include an EAC/XLD log with your files.

If you extract a show from a CDR to a wav or aiff file, then you need to use an application like EAC to do so. When you use EAC, you have the option to create an EAC log which just tells you that all the files were extracted correctly (hopefully it tells you that, if not, then you should try again).
__________________
Five's Checksums Demystified - everything and anything you want to know about checksums
On a Mac? Get XLD to rip your CDs. Please see this guide - X Lossless Decoder (XLD): How to create flawless CD rips on Mac OS X

TTD GoFundMe Campaign

Reply With Quote Reply with Nested Quotes
  #3  
Old 2015-03-22, 08:29 PM
BlackBart's Avatar
BlackBart BlackBart is offline
584.61 GB/890.32 GB/1.52
 
Join Date: Nov 2008
Re: Please include an EAC/XLD log with your files.

Quote:
Originally Posted by U2Lynne View Post
If you extract a show from a CDR to a wav or aiff file, then you need to use an application like EAC to do so. When you use EAC, you have the option to create an EAC log which just tells you that all the files were extracted correctly (hopefully it tells you that, if not, then you should try again).


Ok, thanks.
Reply With Quote Reply with Nested Quotes
Reply

The Traders' Den > Where we go to learn ..... > Technobabble

Similar Threads
Thread Forum Replies Last Post
suggestions for free or purchased cd burning programs that include audio cleanig features? - gator Technobabble 5 2013-12-30 06:01 AM
Hard Drive is full - Original Music Files vs. Back-up Files - cicada Technobabble 6 2007-01-07 04:12 PM
Toast 7 to include FLAC support - ffooky Technobabble 10 2005-08-23 02:20 PM


Thread Tools

Posting Rules
You may not post new threads
You may not post replies
You may not post attachments
You may not edit your posts

BB code is On
Smilies are On
[IMG] code is On
HTML code is Off

Forums


All times are GMT -5. The time now is 10:27 AM.


Powered by: vBulletin, Copyright ©2000 - 2017, Jelsoft Enterprises Ltd.
Copyright ©2004 - , TheTradersDen.org - All Rights Reserved - Hosted at QuickPacket
no new posts