View Single Post
  #2  
Old 2007-11-23, 03:26 PM
lehnhard lehnhard is offline
 
Join Date: Apr 2005
Re: Understanding Cue Sheets

could it be possible that the "additional index" describes the two/three second gaps between the songs only ? here's a cue for a gapless cd.


"X:\xx\amy winehouse hove festival 26 june 2007 fm\xxx.wav"
TRACK 01 AUDIO
INDEX 01 00:00:00
TRACK 02 AUDIO
INDEX 01 00:27:17
TRACK 03 AUDIO
INDEX 01 03:39:45
TRACK 04 AUDIO
INDEX 01 07:09:51
TRACK 05 AUDIO
INDEX 01 10:40:28
TRACK 06 AUDIO
INDEX 01 13:37:33
TRACK 07 AUDIO
INDEX 01 16:28:58
TRACK 08 AUDIO
INDEX 01 21:02:61
TRACK 09 AUDIO
INDEX 01 25:31:63
TRACK 10 AUDIO
INDEX 01 28:23:35
TRACK 11 AUDIO
INDEX 01 32:20:29
TRACK 12 AUDIO
INDEX 01 36:00:29
TRACK 13 AUDIO
INDEX 01 39:17:21
TRACK 14 AUDIO
INDEX 01 43:52:64
TRACK 15 AUDIO
INDEX 01 47:47:30
TRACK 16 AUDIO
INDEX 01 50:43:74
Reply With Quote Reply with Nested Quotes