View Single Post
  #1  
Old 2007-11-23, 01:52 PM
Perderabo
 
Understanding Cue Sheets

Ok, I read the Wikipedia article and some other tutorials. But they always describe a more simple layout than I see in real life. Here is one:
Code:
FILE ALBUM.WAV WAVE
  TRACK 01 AUDIO
    INDEX 01 00:00:00
  TRACK 02 AUDIO
    INDEX 00 02:21:24
    INDEX 01 02:24:00
  TRACK 03 AUDIO
    INDEX 00 04:19:36
    INDEX 01 04:22:00
  TRACK 04 AUDIO
    INDEX 00 06:35:23
    INDEX 01 06:38:00
  TRACK 05 AUDIO
    INDEX 00 08:54:49
    INDEX 01 08:57:00
  TRACK 06 AUDIO
    INDEX 00 11:37:11
    INDEX 01 11:40:00
  TRACK 07 AUDIO
    INDEX 00 13:43:30
    INDEX 01 13:46:00
  TRACK 08 AUDIO
    INDEX 00 16:03:15
    INDEX 01 16:06:00
  TRACK 09 AUDIO
    INDEX 00 18:43:40
    INDEX 01 18:46:00
  TRACK 10 AUDIO
    INDEX 00 20:56:22
    INDEX 01 20:59:00
  TRACK 11 AUDIO
    INDEX 00 23:17:61
    INDEX 01 23:20:00
  TRACK 12 AUDIO
    INDEX 00 26:06:16
    INDEX 01 26:09:00
  TRACK 13 AUDIO
    INDEX 00 28:41:06
    INDEX 01 28:44:00
  TRACK 14 AUDIO
    INDEX 00 31:53:07
    INDEX 01 31:56:00
  TRACK 15 AUDIO
    INDEX 00 34:13:00
    INDEX 01 34:16:00
  TRACK 16 AUDIO
    INDEX 00 36:20:51
    INDEX 01 36:23:00
In the tutorials, each track only has an "INDEX 01". The Cue files I get always seem to have an "INDEX 00" as well. What is up with that extra entry. And does anyone have a link to a tutorial that completely describes Cue files? Could there be an "INDEX 02" on some cue file?

Thanks for any help on this.
Edit/Delete Message Reply With Quote Reply with Nested Quotes