View Single Post
  #11  
Old 2007-10-12, 05:43 PM
cleantone cleantone is offline
 
Join Date: Nov 2004
Re: Mac: extracing VIDEO_TS audio; replacing VIDEO_TS audio?

I can't figure out why it says "unable to read from" on that folder. The permissions are okay for read and write. Any idea?

ffmpeg version CVS, build 3277056, Copyright (c) 2000-2004 Fabrice Bellard
Mac OSX static build for ffmpegX
configuration: --enable-mp3lame --enable-gpl --disable-vhook --disable-ffplay --disable-ffserver --enable-a52 --enable-xvid --enable-faac --enable-faad --enable-amr_nb --enable-amr_wb --enable-pthreads --enable-x264
built on Dec 1 2005 03:50:24, gcc: 3.3 20030304 (Apple Computer, Inc. build 1666)
Input #0, wav, from '/Users/xxxxxxxx/Desktop/new soundtrack.wav':
Duration: 00:45:14.2, start: 0.000000, bitrate: 1535 kb/s
Stream #0.0: Audio: pcm_s16le, 48000 Hz, stereo, 1536 kb/s
Output #0, mp2, to '/Users/xxxxxxxx/Desktop/new soundtrack.wav.mp2':
Stream #0.0: Audio: mp2, 48000 Hz, stereo, 224 kb/s
Stream mapping:
Stream #0.0 -> #0.0
video:0kB audio:74217kB global headers:0kB muxing overhead 0.000000%
INFO: [mplex] mplex version 2.2.2 ($Date: 2003/05/13 20:27:15 $)
**ERROR: [mplex] Unable to read from /Users/xxxxxxxx/Desktop/xxxxxxxx/VIDEO_TS.
Reply With Quote Reply with Nested Quotes