View Single Post
  #23  
Old 2007-07-21, 03:22 AM
cicada's Avatar
cicada cicada is offline
Long Distance Runner
 
Join Date: Sep 2006
Location: north of the medicine line
Re: EAC configuration, offsets, etc...

It does not appear to have an effect with me one way or the other. I have tried "overread into lead in and lead out" enabled and disabled. I repeated this with the proper offset correction and then with no offset correct. Oddly, I get no errors reported when I extract a brand new commercially produced disc.

Here is an example of my log report
EAC extraction logfile from 20. July 2007, 18:28 for CD
Unknown Artist / Unknown Title

Used drive : HL-DT-STRW/DVD GCC-4241N Adapter: 1 ID: 0
Read mode : Secure with NO C2, accurate stream, NO disable cache
Read offset correction : 120
Overread into Lead-In and Lead-Out : Yes

Used output format : Internal WAV Routines
44.100 Hz; 16 Bit; Stereo

Other options :
Fill up missing offset samples with silence : Yes
Delete leading and trailing silent blocks : No
Installed external ASPI interface


Track 1
Filename C:\Documents and Settings\Larry Shore\My Documents\My Music\eac\Ram120_leadinandout\Track01.wav

Peak level 96.2 %
Track quality 100.0 %
Test CRC 7F7E6950
Copy CRC 7F7E6950
Copy OK

Track 2
Filename C:\Documents and Settings\Larry Shore\My Documents\My Music\eac\Ram120_leadinandout\Track02.wav

Peak level 92.5 %
Track quality 100.0 %
Test CRC CB5C2084
Copy CRC CB5C2084
Copy OK

Track 3
Filename C:\Documents and Settings\Larry Shore\My Documents\My Music\eac\Ram120_leadinandout\Track03.wav

Peak level 81.1 %
Track quality 100.0 %
Test CRC 2BBB1AEB
Copy CRC 2BBB1AEB
Copy OK

Track 4
Filename C:\Documents and Settings\Larry Shore\My Documents\My Music\eac\Ram120_leadinandout\Track04.wav

Peak level 79.9 %
Track quality 100.0 %
Test CRC E5E435E3
Copy CRC E5E435E3
Copy OK

Track 5
Filename C:\Documents and Settings\Larry Shore\My Documents\My Music\eac\Ram120_leadinandout\Track05.wav

Peak level 71.6 %
Track quality 99.9 %
Test CRC 044F4B72
Copy CRC 044F4B72
Copy OK

Track 6
Filename C:\Documents and Settings\Larry Shore\My Documents\My Music\eac\Ram120_leadinandout\Track06.wav

Peak level 77.0 %
Track quality 100.0 %
Test CRC C5C514E4
Copy CRC C5C514E4
Copy OK

Track 7
Filename C:\Documents and Settings\Larry Shore\My Documents\My Music\eac\Ram120_leadinandout\Track07.wav

Peak level 65.2 %
Track quality 100.0 %
Test CRC 31A63169
Copy CRC 31A63169
Copy OK

Track 8
Filename C:\Documents and Settings\Larry Shore\My Documents\My Music\eac\Ram120_leadinandout\Track08.wav

Peak level 74.9 %
Track quality 100.0 %
Test CRC D6A750F6
Copy CRC D6A750F6
Copy OK

Track 9
Filename C:\Documents and Settings\Larry Shore\My Documents\My Music\eac\Ram120_leadinandout\Track09.wav

Peak level 83.5 %
Track quality 100.0 %
Test CRC 9CFB50DC
Copy CRC 9CFB50DC
Copy OK

Track 10
Filename C:\Documents and Settings\Larry Shore\My Documents\My Music\eac\Ram120_leadinandout\Track10.wav

Peak level 75.0 %
Track quality 100.0 %
Test CRC 8238083C
Copy CRC 8238083C
Copy OK

Track 11
Filename C:\Documents and Settings\Larry Shore\My Documents\My Music\eac\Ram120_leadinandout\Track11.wav

Peak level 72.1 %
Track quality 100.0 %
Test CRC B06FBC1E
Copy CRC B06FBC1E
Copy OK

Track 12
Filename C:\Documents and Settings\Larry Shore\My Documents\My Music\eac\Ram120_leadinandout\Track12.wav

Peak level 67.8 %
Track quality 100.0 %
Test CRC CEF2DD11
Copy CRC CEF2DD11
Copy OK

Track 13
Filename C:\Documents and Settings\Larry Shore\My Documents\My Music\eac\Ram120_leadinandout\Track13.wav

Peak level 82.8 %
Track quality 99.9 %
Test CRC 64D9BFEC
Copy CRC 64D9BFEC
Copy OK

Track 14
Filename C:\Documents and Settings\Larry Shore\My Documents\My Music\eac\Ram120_leadinandout\Track14.wav

Peak level 89.7 %
Track quality 100.0 %
Test CRC 56189534
Copy CRC 56189534
Copy OK

No errors occured


End of status report
Reply With Quote Reply with Nested Quotes