View Single Post
  #6  
Old 2005-04-25, 10:37 PM
pmonk's Avatar
pmonk pmonk is offline
 
Join Date: Nov 2004
Re: md5 and shntool question

Very handy program!

To use shntool on WIN XP, use the cd command and drag the file you want to check into the dos window

Microsoft Windows XP [Version 5.1.2600]
(C) Copyright 1985-2001 Microsoft Corp.

C:\Documents and Settings\Paul XXXXXXXXX>cd

-------------------------------------------------------------------

C:\Documents and Settings\Paul XXXXXXX>cd "C:\Documents and Settings\Paul XXXXXXX\My Documents\My Music\rs1971-03-13.sbd.shnf"

-------------------------------------------------------------------
C:\Documents and Settings\Paul XXXXXX>"C:\Documents and Settings\Paul XXXXXXXX\My Documents\My Music\rs1971-03-13.sbd.shnf"

--------------------------------------------------------------------

C:\Documents and Settings\Paul Feldman\My Documents\My Music\rs1971-03-13.sbd.shnf>shntool len *.flac

length expanded size cdr WAVE problems filename
4:41.08 49587260 --- -- ---xx rs1971-03-13d1t01.flac
3:52.17 40964828 --- -- ---xx rs1971-03-13d1t02.flac
6:16.73 66498140 --- -- ---xx rs1971-03-13d1t03.flac
12:59.10 137439164 --- -- ---xx rs1971-03-13d1t04.flac
4:14.30 44876204 --- -- ---xx rs1971-03-13d1t05.flac
0:54.05 9537404 --- -- ---xx rs1971-03-13d1t06.flac
3:12.67 34026428 --- -- ---xx rs1971-03-13d1t07.flac
5:11.45 54966284 --- -- ---xx rs1971-03-13d1t08.flac
4:40.35 49474364 --- -- ---xx rs1971-03-13d1t09.flac
4:16.25 45217244 --- -- ---xx rs1971-03-13d1t10.flac
5:08.55 54460604 --- -- ---xx rs1971-03-13d1t11.flac
2:39.68 28207580 --- -- ---xx rs1971-03-13d1t12.flac
2:14.15 23672924 --- -- ---xx rs1971-03-13d1t13.flac
60:22.03 638928428 B (totals for 13 files, 0.6283 o
verall compression ratio)

C:\Documents and Settings\Paul XXXXXXX\My Documents\My Music\rs1971-03-13.sbd.shnf>
Reply With Quote Reply with Nested Quotes