PDA

View Full Version : Succesful rip, in several tries?


Saebekassebil
2011-03-16, 09:15 AM
Hi everybody, I'm new here, but I find this site, quite interesting 'cause I share a lot of those "audiophile"-like feelings..

Anyway: I've been ripping my way through a lot of CD's now, and in some cases it takes several tries to get accurate rips.
But that means that the first log is screwed up, and contains faults.
I would like to seed some of my CD's, but can I do that with a logfile that isn't valid?

Regards
Saebekassebil

(BTW. Using EAC)

AAR.oner
2011-03-16, 11:53 AM
depends on the "faults"

post the EAC log here and we'll take a look

Saebekassebil
2011-03-17, 12:26 PM
Oh! I didn't see that the log is appended instead of replaced, so well it should be fine.. But here take a look, and judge if it's ok (Attached)

Saebekassebil
2011-03-17, 12:27 PM
Or well.. i though i had attached it... Here it goes raw:

Exact Audio Copy V1.0 beta 1 from 15. November 2010

EAC extraction logfile from 16. March 2011, 13:54

Sigur Rós / Von

Used drive : MATSHITADVD-RAM UJ890AS Adapter: 0 ID: 1

Read mode : Secure
Utilize accurate stream : Yes
Defeat audio cache : No
Make use of C2 pointers : Yes

Read offset correction : 102
Overread into Lead-In and Lead-Out : No
Fill up missing offset samples with silence : Yes
Delete leading and trailing silent blocks : No
Null samples used in CRC calculations : No
Used interface : Native Win32 interface for Win NT & 2000
Gap handling : Appended to previous track

Used output format : User Defined Encoder
Selected bitrate : 768 kBit/s
Quality : High
Add ID3 tag : No
Command line compressor : C:\Program Files (x86)\Exact Audio Copy\FLAC\FLAC.EXE
Additional command line options : -6 -V -T "ARTIST=%a" -T "TITLE=%t" -T "ALBUM=%g" -T "DATE=%y" -T "TRACKNUMBER=%n" -T "GENRE=%m" -T "COMMENT=%e" %j--picture="%i"%j %s -o %d


TOC of the extracted CD

Track | Start | Length | Start sector | End sector
---------------------------------------------------------
1 | 0:00.00 | 9:47.05 | 0 | 44029
2 | 9:47.05 | 5:50.10 | 44030 | 70289
3 | 15:37.15 | 7:18.17 | 70290 | 103156
4 | 22:55.32 | 2:34.08 | 103157 | 114714
5 | 25:29.40 | 6:14.20 | 114715 | 142784
6 | 31:43.60 | 0:18.65 | 142785 | 144199
7 | 32:02.50 | 12:25.00 | 144200 | 200074
8 | 44:27.50 | 3:29.40 | 200075 | 215789
9 | 47:57.15 | 5:12.17 | 215790 | 239206
10 | 53:09.32 | 2:16.40 | 239207 | 249446
11 | 55:25.72 | 7:45.48 | 249447 | 284369
12 | 63:11.45 | 9:01.65 | 284370 | 325009


Track 1

Filename C:\rips\Sigur Rós\Von\01 - Sigur Rós - Sigur Rós.wav

Pre-gap length 0:00:02.00

Peak level 93.7 %
Extraction speed 2.4 X
Track quality 100.0 %
Test CRC 49060EF4
Copy CRC 49060EF4
Accurately ripped (confidence 6) [C7F195D1]
Copy OK

Track 2

Filename C:\rips\Sigur Rós\Von\02 - Sigur Rós - Dögun.wav

Peak level 79.8 %
Extraction speed 2.6 X
Track quality 100.0 %
Test CRC DC4FA7DA
Copy CRC DC4FA7DA
Accurately ripped (confidence 6) [860842A7]
Copy OK

Track 3

Filename C:\rips\Sigur Rós\Von\03 - Sigur Rós - Hún Jörđ.wav

Peak level 94.2 %
Extraction speed 2.8 X
Track quality 100.0 %
Test CRC 7EA6DB68
Copy CRC 7EA6DB68
Accurately ripped (confidence 6) [FBC92A47]
Copy OK

Track 4

Filename C:\rips\Sigur Rós\Von\04 - Sigur Rós - Leit Ađ Lífi.wav

Peak level 77.4 %
Extraction speed 2.8 X
Track quality 100.0 %
Test CRC 49200EC8
Copy CRC 49200EC8
Accurately ripped (confidence 6) [4E69C2EF]
Copy OK

Track 5

Filename C:\rips\Sigur Rós\Von\05 - Sigur Rós - Myrkur.wav

Peak level 94.4 %
Extraction speed 2.9 X
Track quality 100.0 %
Test CRC 7E24796F
Copy CRC 7E24796F
Accurately ripped (confidence 6) [7A8F039B]
Copy OK

Track 6

Filename C:\rips\Sigur Rós\Von\06 - Sigur Rós - 18 Sekúndur Fyrir Sólarupprás.wav

Peak level 0.1 %
Extraction speed 3.1 X
Track quality 100.0 %
Test CRC A22815A9
Copy CRC A22815A9
Accurately ripped (confidence 6) [8D2860CD]
Copy OK

Track 7

Filename C:\rips\Sigur Rós\Von\07 - Sigur Rós - Hafssól.wav

Peak level 94.4 %
Extraction speed 4.1 X
Track quality 100.0 %
Test CRC AE8C8BD4
Copy CRC AE8C8BD4
Accurately ripped (confidence 6) [C0989183]
Copy OK

Track 8

Filename C:\rips\Sigur Rós\Von\08 - Sigur Rós - Veröld Ný Og Óđ.wav

Peak level 84.5 %
Extraction speed 4.2 X
Track quality 100.0 %
Test CRC 45EBFA07
Copy CRC 45EBFA07
Accurately ripped (confidence 6) [3E08F608]
Copy OK

Track 9

Filename C:\rips\Sigur Rós\Von\09 - Sigur Rós - Von.wav

Peak level 94.4 %
Extraction speed 4.1 X
Track quality 99.8 %
Test CRC 97DF8F45
Copy CRC F2E69871
Accurately ripped (confidence 6) [4989BDBF]
Copy OK

Track 10

Filename C:\rips\Sigur Rós\Von\10 - Sigur Rós - Mistur.wav

Peak level 89.1 %
Extraction speed 3.9 X
Track quality 99.7 %
Test CRC 5B68786B
Copy CRC 5B68786B
Accurately ripped (confidence 6) [B99AA79F]
Copy OK

Track 11

Filename C:\rips\Sigur Rós\Von\11 - Sigur Rós - Syndir Guđs (Opinberun Frelsarans).wav

Copy aborted

Track 12

Filename C:\rips\Sigur Rós\Von\12 - Sigur Rós - Rukrym.wav

Pre-gap length 0:00:03.00

Peak level 93.9 %
Extraction speed 2.8 X
Track quality 99.7 %
Test CRC E6E9D87D
Copy CRC E6E9D87D
Accurately ripped (confidence 6) [E0A4793C]
Copy OK


11 track(s) accurately ripped
1 track(s) canceled

Some tracks could not be verified as accurate

There were errors

End of status report

==== Log checksum 2E76510C1E40D9716BD08D25BAAFF91B642F6D71B8088837A5E1C5BDDAF796F3 ====

------------------------------------------------------------

Exact Audio Copy V1.0 beta 1 from 15. November 2010

EAC extraction logfile from 16. March 2011, 14:02

Sigur Rós / Von

Used drive : MATSHITADVD-RAM UJ890AS Adapter: 0 ID: 1

Read mode : Secure
Utilize accurate stream : Yes
Defeat audio cache : No
Make use of C2 pointers : Yes

Read offset correction : 102
Overread into Lead-In and Lead-Out : No
Fill up missing offset samples with silence : Yes
Delete leading and trailing silent blocks : No
Null samples used in CRC calculations : No
Used interface : Native Win32 interface for Win NT & 2000
Gap handling : Appended to previous track

Used output format : User Defined Encoder
Selected bitrate : 768 kBit/s
Quality : High
Add ID3 tag : No
Command line compressor : C:\Program Files (x86)\Exact Audio Copy\FLAC\FLAC.EXE
Additional command line options : -6 -V -T "ARTIST=%a" -T "TITLE=%t" -T "ALBUM=%g" -T "DATE=%y" -T "TRACKNUMBER=%n" -T "GENRE=%m" -T "COMMENT=%e" %j--picture="%i"%j %s -o %d


TOC of the extracted CD

Track | Start | Length | Start sector | End sector
---------------------------------------------------------
1 | 0:00.00 | 9:47.05 | 0 | 44029
2 | 9:47.05 | 5:50.10 | 44030 | 70289
3 | 15:37.15 | 7:18.17 | 70290 | 103156
4 | 22:55.32 | 2:34.08 | 103157 | 114714
5 | 25:29.40 | 6:14.20 | 114715 | 142784
6 | 31:43.60 | 0:18.65 | 142785 | 144199
7 | 32:02.50 | 12:25.00 | 144200 | 200074
8 | 44:27.50 | 3:29.40 | 200075 | 215789
9 | 47:57.15 | 5:12.17 | 215790 | 239206
10 | 53:09.32 | 2:16.40 | 239207 | 249446
11 | 55:25.72 | 7:45.48 | 249447 | 284369
12 | 63:11.45 | 9:01.65 | 284370 | 325009


Track 11

Filename C:\rips\Sigur Rós\Von\11 - Sigur Rós - Syndir Guđs (Opinberun Frelsarans).wav

Suspicious position 0:00:00

Copy aborted


No tracks could be verified as accurate

There were errors

End of status report

==== Log checksum 8CB9B1F980A013D2166F4DF06BA45A1700A8B2562196CBA4FA4CAC7914681380 ====

------------------------------------------------------------

Exact Audio Copy V1.0 beta 1 from 15. November 2010

EAC extraction logfile from 16. March 2011, 14:06

Sigur Rós / Von

Used drive : MATSHITADVD-RAM UJ890AS Adapter: 0 ID: 1

Read mode : Secure
Utilize accurate stream : Yes
Defeat audio cache : No
Make use of C2 pointers : Yes

Read offset correction : 102
Overread into Lead-In and Lead-Out : No
Fill up missing offset samples with silence : Yes
Delete leading and trailing silent blocks : No
Null samples used in CRC calculations : No
Used interface : Native Win32 interface for Win NT & 2000
Gap handling : Appended to previous track

Used output format : User Defined Encoder
Selected bitrate : 768 kBit/s
Quality : High
Add ID3 tag : No
Command line compressor : C:\Program Files (x86)\Exact Audio Copy\FLAC\FLAC.EXE
Additional command line options : -6 -V -T "ARTIST=%a" -T "TITLE=%t" -T "ALBUM=%g" -T "DATE=%y" -T "TRACKNUMBER=%n" -T "GENRE=%m" -T "COMMENT=%e" %j--picture="%i"%j %s -o %d


TOC of the extracted CD

Track | Start | Length | Start sector | End sector
---------------------------------------------------------
1 | 0:00.00 | 9:47.05 | 0 | 44029
2 | 9:47.05 | 5:50.10 | 44030 | 70289
3 | 15:37.15 | 7:18.17 | 70290 | 103156
4 | 22:55.32 | 2:34.08 | 103157 | 114714
5 | 25:29.40 | 6:14.20 | 114715 | 142784
6 | 31:43.60 | 0:18.65 | 142785 | 144199
7 | 32:02.50 | 12:25.00 | 144200 | 200074
8 | 44:27.50 | 3:29.40 | 200075 | 215789
9 | 47:57.15 | 5:12.17 | 215790 | 239206
10 | 53:09.32 | 2:16.40 | 239207 | 249446
11 | 55:25.72 | 7:45.48 | 249447 | 284369
12 | 63:11.45 | 9:01.65 | 284370 | 325009


Track 11

Filename C:\rips\Sigur Rós\Von\11 - Sigur Rós - Syndir Guđs (Opinberun Frelsarans).wav

Peak level 100.0 %
Extraction speed 2.9 X
Track quality 100.0 %
Copy CRC 35A7E3BB
Accurately ripped (confidence 6) [BD474F4A]
Copy OK


All tracks accurately ripped

No errors occurred

End of status report

==== Log checksum 51F655E247A384E9D8FCF78E8363BE3D9434C850EC507A7C9072173772E21F86 ====

------------------------------------------------------------

Exact Audio Copy V1.0 beta 1 from 15. November 2010

EAC extraction logfile from 16. March 2011, 14:10

Sigur Rós / Von

Used drive : MATSHITADVD-RAM UJ890AS Adapter: 0 ID: 1

Read mode : Secure
Utilize accurate stream : Yes
Defeat audio cache : No
Make use of C2 pointers : Yes

Read offset correction : 102
Overread into Lead-In and Lead-Out : No
Fill up missing offset samples with silence : Yes
Delete leading and trailing silent blocks : No
Null samples used in CRC calculations : No
Used interface : Native Win32 interface for Win NT & 2000
Gap handling : Appended to previous track

Used output format : User Defined Encoder
Selected bitrate : 768 kBit/s
Quality : High
Add ID3 tag : No
Command line compressor : C:\Program Files (x86)\Exact Audio Copy\FLAC\FLAC.EXE
Additional command line options : -6 -V -T "ARTIST=%a" -T "TITLE=%t" -T "ALBUM=%g" -T "DATE=%y" -T "TRACKNUMBER=%n" -T "GENRE=%m" -T "COMMENT=%e" %j--picture="%i"%j %s -o %d


TOC of the extracted CD

Track | Start | Length | Start sector | End sector
---------------------------------------------------------
1 | 0:00.00 | 9:47.05 | 0 | 44029
2 | 9:47.05 | 5:50.10 | 44030 | 70289
3 | 15:37.15 | 7:18.17 | 70290 | 103156
4 | 22:55.32 | 2:34.08 | 103157 | 114714
5 | 25:29.40 | 6:14.20 | 114715 | 142784
6 | 31:43.60 | 0:18.65 | 142785 | 144199
7 | 32:02.50 | 12:25.00 | 144200 | 200074
8 | 44:27.50 | 3:29.40 | 200075 | 215789
9 | 47:57.15 | 5:12.17 | 215790 | 239206
10 | 53:09.32 | 2:16.40 | 239207 | 249446
11 | 55:25.72 | 7:45.48 | 249447 | 284369
12 | 63:11.45 | 9:01.65 | 284370 | 325009


Track 9

Filename C:\rips\Sigur Rós\Von\09 - Sigur Rós - Von.wav

Peak level 94.4 %
Extraction speed 2.8 X
Track quality 100.0 %
Test CRC F2E69871
Copy CRC F2E69871
Accurately ripped (confidence 6) [4989BDBF]
Copy OK


All tracks accurately ripped

No errors occurred

End of status report

==== Log checksum 160D4200CFDCF86CD3E7ADC837DB3553FC6F319ABDC0621B8B6E942A50B8AEB4 ====

AAR.oner
2011-03-18, 09:38 AM
looks fine...looks like it had to abort on that one track and retry, which could be caused by a number of things

the main things you want to look carefully at in an extraction log are the Track Quality percentages, Accurately Ripped, and Copy OK...as long as its 99.x% and it also says Ripped Accurately & Copy OK, then it should be fine

the reason its only lets say 99.8% instead 100% is it had to re-read certain sectors more than once