PDA

View Full Version : question about XLD extraction log


AndrewZoSo
2013-01-04, 08:04 PM
I do not understand what the second to last line of the following XLD extraction log means. It says "Some inconsistencies found," rather than the usual "No errors occurred." But it also says elsewhere that there were no errors and "All tracks accurately ripped." Notice also that it reports no errors whatsoever for every track.

I have tried to find out via Google searches, without success. Can anybody comment or tell me where I can find out?

A second question is, does it matter? Or is the "All tracks ripped accurately" all I need to know that I have a good rip?


X Lossless Decoder version 20121222 (142.2)

XLD extraction logfile from 2013-01-04 18:35:51 -0500

Simon & Garfunkel / Wednesday Morning, 3 A.M.

Used drive : MATSHITA DVD-R UJ-898 (revision HC10)
Media type : Pressed CD

Ripper mode : CDParanoia III 10.2
Disable audio cache : OK for the drive with a cache less than 2750KiB
Make use of C2 pointers : NO
Read offset correction : 102
Max retry count : 100
Gap status : Analyzed, Appended

TOC of the extracted CD
Track | Start | Length | Start sector | End sector
---------------------------------------------------------
1 | 00:00:00 | 02:45:35 | 0 | 12409
2 | 02:45:35 | 02:11:17 | 12410 | 22251
3 | 04:56:52 | 02:46:20 | 22252 | 34721
4 | 07:42:72 | 02:50:03 | 34722 | 47474
5 | 10:33:00 | 02:41:32 | 47475 | 59581
6 | 13:14:32 | 03:06:63 | 59582 | 73594
7 | 16:21:20 | 02:49:32 | 73595 | 86301
8 | 19:10:52 | 02:25:63 | 86302 | 97239
9 | 21:36:40 | 02:06:27 | 97240 | 106716
10 | 23:42:67 | 02:49:28 | 106717 | 119419
11 | 26:32:20 | 02:53:35 | 119420 | 132429
12 | 29:25:55 | 02:12:67 | 132430 | 142396

AccurateRip Summary (DiscID: 000e428e-00852a90-b9076a0c)
Track 01 : OK (v1, confidence 7/7)
Track 02 : OK (v1, confidence 7/7)
Track 03 : OK (v1, confidence 7/7)
Track 04 : OK (v1, confidence 7/7)
Track 05 : OK (v1, confidence 7/7)
Track 06 : OK (v1, confidence 7/7)
Track 07 : OK (v1, confidence 7/7)
Track 08 : OK (v1, confidence 7/7)
Track 09 : OK (v1, confidence 7/7)
Track 10 : OK (v1, confidence 7/7)
Track 11 : OK (v1, confidence 7/7)
Track 12 : OK (v1, confidence 7/7)
->All tracks accurately ripped.

All Tracks
Statistics
Read error : 0
Skipped (treated as error) : 0
Edge jitter error (maybe fixed) : 0
Atom jitter error (maybe fixed) : 0
Drift error (maybe fixed) : 0
Dropped bytes error (maybe fixed) : 0
Duplicated bytes error (maybe fixed) : 0

Track 01
Filename : /Users/andrewflorian/Desktop/new wednesday/01 Simon & Garfunkel - You Can Tell The World.flac
Pre-gap length : 00:02:00

CRC32 hash (test run) : 41CCC39F
CRC32 hash : 41CCC39F
CRC32 hash (skip zero) : 7BA2A1CB
AccurateRip v1 signature : EBC79D53
AccurateRip v2 signature : 15859787
->Accurately ripped (v1, confidence 7/7)
Statistics
Read error : 0
Skipped (treated as error) : 0
Edge jitter error (maybe fixed) : 0
Atom jitter error (maybe fixed) : 0
Drift error (maybe fixed) : 0
Dropped bytes error (maybe fixed) : 0
Duplicated bytes error (maybe fixed) : 0
Inconsistency in error sectors : 0

Track 02
Filename : /Users/andrewflorian/Desktop/new wednesday/02 Simon & Garfunkel - Last Night I Had The Strangest Dream.flac
Pre-gap length : 00:01:13

CRC32 hash (test run) : A886DA75
CRC32 hash : A886DA75
CRC32 hash (skip zero) : 531261AD
AccurateRip v1 signature : 3FDE0AA6
AccurateRip v2 signature : DF7E97A8
->Accurately ripped (v1, confidence 7/7)
Statistics
Read error : 0
Skipped (treated as error) : 0
Edge jitter error (maybe fixed) : 0
Atom jitter error (maybe fixed) : 0
Drift error (maybe fixed) : 0
Dropped bytes error (maybe fixed) : 0
Duplicated bytes error (maybe fixed) : 0
Inconsistency in error sectors : 0

Track 03
Filename : /Users/andrewflorian/Desktop/new wednesday/03 Simon & Garfunkel - Bleecker Street.flac
Pre-gap length : 00:03:00

CRC32 hash (test run) : 8444170F
CRC32 hash : 8444170F
CRC32 hash (skip zero) : 9D8C0B37
AccurateRip v1 signature : F554F257
AccurateRip v2 signature : 1DE7A762
->Accurately ripped (v1, confidence 7/7)
Statistics
Read error : 0
Skipped (treated as error) : 0
Edge jitter error (maybe fixed) : 0
Atom jitter error (maybe fixed) : 0
Drift error (maybe fixed) : 0
Dropped bytes error (maybe fixed) : 0
Duplicated bytes error (maybe fixed) : 0
Inconsistency in error sectors : 0

Track 04
Filename : /Users/andrewflorian/Desktop/new wednesday/04 Simon & Garfunkel - Sparrow.flac
Pre-gap length : 00:03:27

CRC32 hash (test run) : 5B6A5370
CRC32 hash : 5B6A5370
CRC32 hash (skip zero) : BE1322FA
AccurateRip v1 signature : E11E3B40
AccurateRip v2 signature : 69E87F86
->Accurately ripped (v1, confidence 7/7)
Statistics
Read error : 0
Skipped (treated as error) : 0
Edge jitter error (maybe fixed) : 0
Atom jitter error (maybe fixed) : 0
Drift error (maybe fixed) : 0
Dropped bytes error (maybe fixed) : 0
Duplicated bytes error (maybe fixed) : 0
Inconsistency in error sectors : 0

Track 05
Filename : /Users/andrewflorian/Desktop/new wednesday/05 Simon & Garfunkel - Benedictus.flac
Pre-gap length : 00:03:10

CRC32 hash (test run) : 3C1E91F7
CRC32 hash : 3C1E91F7
CRC32 hash (skip zero) : 390124C3
AccurateRip v1 signature : EE3AD23B
AccurateRip v2 signature : 485A1B79
->Accurately ripped (v1, confidence 7/7)
Statistics
Read error : 0
Skipped (treated as error) : 0
Edge jitter error (maybe fixed) : 0
Atom jitter error (maybe fixed) : 0
Drift error (maybe fixed) : 0
Dropped bytes error (maybe fixed) : 0
Duplicated bytes error (maybe fixed) : 0
Inconsistency in error sectors : 0

Track 06
Filename : /Users/andrewflorian/Desktop/new wednesday/06 Simon & Garfunkel - The Sounds Of Silence.flac
Pre-gap length : 00:03:00

CRC32 hash (test run) : 4C1D4BB7
CRC32 hash : 4C1D4BB7
CRC32 hash (skip zero) : 8DEB15A1
AccurateRip v1 signature : CF465271
AccurateRip v2 signature : F4262F36
->Accurately ripped (v1, confidence 7/7)
Statistics
Read error : 0
Skipped (treated as error) : 0
Edge jitter error (maybe fixed) : 0
Atom jitter error (maybe fixed) : 0
Drift error (maybe fixed) : 0
Dropped bytes error (maybe fixed) : 0
Duplicated bytes error (maybe fixed) : 0
Inconsistency in error sectors : 0

Track 07
Filename : /Users/andrewflorian/Desktop/new wednesday/07 Simon & Garfunkel - He Was My Brother.flac
Pre-gap length : 00:02:68

CRC32 hash (test run) : 4930E98B
CRC32 hash : 4930E98B
CRC32 hash (skip zero) : F8B34D15
AccurateRip v1 signature : 7FB7893F
AccurateRip v2 signature : 93358166
->Accurately ripped (v1, confidence 7/7)
Statistics
Read error : 0
Skipped (treated as error) : 0
Edge jitter error (maybe fixed) : 0
Atom jitter error (maybe fixed) : 0
Drift error (maybe fixed) : 0
Dropped bytes error (maybe fixed) : 0
Duplicated bytes error (maybe fixed) : 0
Inconsistency in error sectors : 0

Track 08
Filename : /Users/andrewflorian/Desktop/new wednesday/08 Simon & Garfunkel - Peggy-O.flac
Pre-gap length : 00:02:67

CRC32 hash (test run) : 398A8D01
CRC32 hash : 398A8D01
CRC32 hash (skip zero) : 48441C8D
AccurateRip v1 signature : 24825768
AccurateRip v2 signature : DF67597D
->Accurately ripped (v1, confidence 7/7)
Statistics
Read error : 0
Skipped (treated as error) : 0
Edge jitter error (maybe fixed) : 0
Atom jitter error (maybe fixed) : 0
Drift error (maybe fixed) : 0
Dropped bytes error (maybe fixed) : 0
Duplicated bytes error (maybe fixed) : 0
Inconsistency in error sectors : 0

Track 09
Filename : /Users/andrewflorian/Desktop/new wednesday/09 Simon & Garfunkel - Go Tell It On The Mountain.flac
Pre-gap length : 00:02:20

CRC32 hash (test run) : 9A10260A
CRC32 hash : 9A10260A
CRC32 hash (skip zero) : 229EF045
AccurateRip v1 signature : 82AA55C0
AccurateRip v2 signature : 860315C9
->Accurately ripped (v1, confidence 7/7)
Statistics
Read error : 0
Skipped (treated as error) : 0
Edge jitter error (maybe fixed) : 0
Atom jitter error (maybe fixed) : 0
Drift error (maybe fixed) : 0
Dropped bytes error (maybe fixed) : 0
Duplicated bytes error (maybe fixed) : 0
Inconsistency in error sectors : 0

Track 10
Filename : /Users/andrewflorian/Desktop/new wednesday/10 Simon & Garfunkel - The Sun Is Burning.flac
Pre-gap length : 00:02:55

CRC32 hash (test run) : 88DD179A
CRC32 hash : 88DD179A
CRC32 hash (skip zero) : 8A459C57
AccurateRip v1 signature : 3C2B0FCE
AccurateRip v2 signature : 7B7A1631
->Accurately ripped (v1, confidence 7/7)
Statistics
Read error : 0
Skipped (treated as error) : 0
Edge jitter error (maybe fixed) : 0
Atom jitter error (maybe fixed) : 0
Drift error (maybe fixed) : 0
Dropped bytes error (maybe fixed) : 0
Duplicated bytes error (maybe fixed) : 0
Inconsistency in error sectors : 0

Track 11
Filename : /Users/andrewflorian/Desktop/new wednesday/11 Simon & Garfunkel - The Times They Are A-Changin'.flac
Pre-gap length : 00:03:00

CRC32 hash (test run) : F6BBBBF1
CRC32 hash : F6BBBBF1
CRC32 hash (skip zero) : 31B6BE45
AccurateRip v1 signature : 28AFA04D
AccurateRip v2 signature : 42D38F48
->Accurately ripped (v1, confidence 7/7)
Statistics
Read error : 0
Skipped (treated as error) : 0
Edge jitter error (maybe fixed) : 0
Atom jitter error (maybe fixed) : 0
Drift error (maybe fixed) : 0
Dropped bytes error (maybe fixed) : 0
Duplicated bytes error (maybe fixed) : 0
Inconsistency in error sectors : 0

Track 12
Filename : /Users/andrewflorian/Desktop/new wednesday/12 Simon & Garfunkel - Wednesday Morning, 3 A.M..flac
Pre-gap length : 00:03:15

CRC32 hash (test run) : C8F2C990
CRC32 hash : 116AC7A2
->Rip may not be accurate.
CRC32 hash (skip zero) : 970FB85A
AccurateRip v1 signature : 3CFE0241
AccurateRip v2 signature : A9E52938
->Accurately ripped (v1, confidence 7/7)
Statistics
Read error : 0
Skipped (treated as error) : 0
Edge jitter error (maybe fixed) : 0
Atom jitter error (maybe fixed) : 0
Drift error (maybe fixed) : 0
Dropped bytes error (maybe fixed) : 0
Duplicated bytes error (maybe fixed) : 0
Inconsistency in error sectors : 0

Some inconsistencies found

End of status report



Here are the settings I used:

http://img41.imageshack.us/img41/7338/screenshot20130104at740.png

AAR.oner
2013-01-05, 08:18 AM
its fine...i'm guessing the "some inconsistencies found" simply meant it had to re-read a few sectors or somethin similar, nothing to worry about tho